<?xml version="1.0" standalone="no"?>
<!DOCTYPE svg PUBLIC "-//W3C//DTD SVG 1.1//EN" "http://www.w3.org/Graphics/SVG/1.1/DTD/svg11.dtd" >
<svg xmlns="http://www.w3.org/2000/svg">
<metadata>Generated by IcoMoon</metadata>
<defs>
<font id="theme-icons" horiz-adv-x="1024">
<font-face units-per-em="1024" ascent="960" descent="-64" />
<missing-glyph horiz-adv-x="1024" />
<glyph unicode="&#x20;" horiz-adv-x="512" d="" />
<glyph unicode="&#xe900;" glyph-name="arrow-link" d="M222.172 909.831c59.671-19.713 117.21-44.132 172.175-72.635 19.535-10.034 38.803-20.867 57.718-32.056 42.888-25.307 84.090-53.367 123.338-83.824 22.021-17.138 43.422-34.987 64.199-53.545 10.744-9.59 21.134-19.269 31.434-29.215 10.744-10.3 21.222-20.778 31.522-31.522 21.134-21.933 41.379-44.663 60.648-68.107 0.089 0 0.089-0.089 0.178-0.089 7.459-8.968 14.829-18.203 22.11-27.615 44.932-57.718 84.444-119.697 118.099-185.317 6.749-13.053 13.231-26.373 19.446-39.781 22.021-47.328 41.113-96.344 56.918-146.691 9.679-31.434 18.292-63.49 25.396-95.99 7.814-35.252 14.030-71.126 18.647-107.444v1024h-1024c60.292-7.459 119.253-19.624 176.349-35.962 15.273-4.529 30.636-9.235 45.818-14.207zM712.247 617.613l0.799 0.888 1.687-2.575z" />
<glyph unicode="&#xe901;" glyph-name="arrow-right-bottom" d="M143.092-64h880.908v880.909h-89.578v-727.9l-870.992 870.992-63.429-63.429 870.992-870.992h-727.9z" />
<glyph unicode="&#xe902;" glyph-name="arrow-left-bottom" d="M880.908-64h-880.908v880.909h89.578v-727.9l870.992 870.992 63.429-63.429-870.992-870.992h727.9z" />
<glyph unicode="&#xe903;" glyph-name="arrow-left-top" d="M880.908 960h-880.908v-880.909h89.578v727.9l870.992-870.992 63.429 63.429-870.992 870.992h727.9z" />
<glyph unicode="&#xe904;" glyph-name="arrow-right-top" d="M143.092 960h880.908v-880.909h-89.578v727.9l-870.992-870.992-63.429 63.429 870.992 870.992h-727.9z" />
<glyph unicode="&#xe905;" glyph-name="chevron-bottom" d="M520.948 153.626l-520.948 537.418 52.944 51.33 468.187-482.85 450.064 461.174 52.805-51.56z" />
<glyph unicode="&#xe906;" glyph-name="chevron-top" d="M503.052 742.374l520.948-537.418-52.944-51.33-468.187 482.85-450.064-461.174-52.805 51.56z" />
<glyph unicode="&#xe907;" glyph-name="chevron-left" d="M217.625 439.051l537.419 520.949 51.33-52.944-482.85-468.186 461.174-450.065-51.56-52.805z" />
<glyph unicode="&#xe908;" glyph-name="chevron-right" d="M806.375 456.949l-537.419-520.949-51.33 52.944 482.85 468.186-461.174 450.065 51.56 52.805z" />
<glyph unicode="&#xe909;" glyph-name="close" d="M953.992 944.649l49.287-51.223-440.778-436.488 0.292-0.259-0.089-0.056 461.296-453.918-49.067-51.357-462.954 455.383-462.913-455.383-49.067 51.357 461.457 454.257-440.736 436.466 49.287 51.223 441.972-437.662z" />
<glyph unicode="&#xe90a;" glyph-name="drag" horiz-adv-x="1280" d="M942.798 787.857l-33.727-35.052 301.667-298.745-315.846-310.774 33.576-35.143 351.542 345.797zM337.201 787.857l33.727-35.052-301.667-298.745 315.846-310.774-33.576-35.143-351.542 345.797z" />
<glyph unicode="&#xe90b;" glyph-name="quote" d="M592 20.8v272c0 155.733 36.8 284.267 110.4 385.6s180.8 166.933 321.6 196.8v-176c-68.267-17.067-121.6-48.533-160-94.4s-61.866-101.867-70.4-168h166.4v-416zM0 20.8v272c0 155.733 36.8 284.267 110.4 385.6s180.8 166.933 321.6 196.8v-176c-68.267-17.067-121.6-48.533-160-94.4s-61.866-101.867-70.4-168h166.4v-416z" />
<glyph unicode="&#xe90c;" glyph-name="menu" horiz-adv-x="1280" d="M31.991 656.003c-17.673 0-32-14.327-32-32s14.327-32 32-32h1216.019c17.673 0 32 14.327 32 32s-14.327 32-32 32h-1216.019zM31.991 303.998c-17.673 0-32-14.327-32-32s14.327-32 32-32h1216.019c17.673 0 32 14.327 32 32s-14.327 32-32 32h-1216.019z" />
<glyph unicode="&#xe90d;" glyph-name="long-dash" horiz-adv-x="1472" d="M1472.007 469.029v-42.057h-1472.013v42.057z" />
<glyph unicode="&#xe90e;" glyph-name="play" d="M671.998 800.001c125.766 0 241.962-67.082 304.841-176.003s62.883-243.072 0-351.996c-62.883-108.924-179.085-176.003-304.841-176.003h-319.996c-125.766 0-241.962 67.082-304.841 176.003s-62.883 243.072 0 351.996c62.883 108.924 179.085 176.003 304.841 176.003zM671.998 736.001h-319.996c-102.87 0-197.953-54.874-249.392-143.993-51.479-89.117-51.479-198.878 0-287.997 51.435-89.113 146.512-143.993 249.392-143.993h319.996c102.87 0 197.953 54.874 249.392 143.993 51.479 89.117 51.479 198.878 0 287.997-51.435 89.113-146.512 143.993-249.392 143.993zM455.24 546.522c-3.12 1.8-6.96 1.8-10.040 0-3.12-1.8-5.040-5.12-5.040-8.68v-179.679c0-3.56 1.92-6.88 5.040-8.68 3.080-1.8 6.92-1.8 10.040 0l155.554 89.841c3.12 1.76 5.040 5.080 5.040 8.68s-1.92 6.92-5.040 8.68l-155.554 89.839z" />
<glyph unicode="&#xe90f;" glyph-name="menu1" d="M390.096 764.952c0-107.722-87.326-195.048-195.048-195.048s-195.048 87.326-195.048 195.048c0 107.722 87.326 195.048 195.048 195.048s195.048-87.326 195.048-195.048zM1024 764.952c0-107.722-87.326-195.048-195.048-195.048s-195.048 87.326-195.048 195.048c0 107.722 87.326 195.048 195.048 195.048s195.048-87.326 195.048-195.048zM390.096 131.048c0-107.722-87.326-195.048-195.048-195.048s-195.048 87.326-195.048 195.048c0 107.722 87.326 195.048 195.048 195.048s195.048-87.326 195.048-195.048zM1024 131.048c0-107.722-87.326-195.048-195.048-195.048s-195.048 87.326-195.048 195.048c0 107.722 87.326 195.048 195.048 195.048s195.048-87.326 195.048-195.048z" />
<glyph unicode="&#xe910;" glyph-name="arrow" d="M1024 448.275c-63.257-29.617-121.487-65.451-174.689-107.501s-101.924-90.864-146.168-146.442c0.366 45.341 7.862 87.664 22.488 126.972s36.199 75.598 64.72 108.872h-111.889c-101.285 0-175.146-16.18-221.583-48.54s-72.581-85.105-78.432-158.235h-378.447c5.119 54.482 21.116 100.005 47.991 136.57s66.274 66 118.196 88.304c-52.288 22.304-91.961 51.739-119.019 88.304s-42.781 81.905-47.169 136.021h378.447c5.85-73.13 31.994-125.875 78.432-158.235s120.299-48.54 221.583-48.54h111.889c-28.521 33.64-50.094 70.022-64.72 109.146s-22.122 81.357-22.488 126.697c44.609-55.944 93.423-104.85 146.442-146.716s111.157-77.426 174.415-106.678z" />
<glyph unicode="&#xe911;" glyph-name="GettyImages-1456747446-3" d="M586.364 454.441h111.453l55.745 96.52h-111.453l-55.745-96.483zM575.129 441.537c-3.554 0.011-6.431 2.896-6.431 6.451 0 1.202 0.329 2.328 0.902 3.292l-0.017-0.030 63.175 109.423c1.16 1.993 3.262 3.226 5.581 3.226h126.422c0.016 0 0.034 0 0.052 0 3.563 0 6.451-2.888 6.451-6.451 0-1.202-0.329-2.328-0.902-3.292l0.017 0.030-63.175-109.387c-1.16-2.030-3.298-3.262-5.618-3.262h-126.386zM642.109 563.901h111.453l-182.131 315.33h-111.453l182.131-315.33zM638.375 550.961c-2.32 0-4.458 1.232-5.581 3.262l-189.597 328.27c-0.543 0.926-0.865 2.038-0.865 3.226 0 3.561 2.886 6.449 6.446 6.451h126.386c2.32 0 4.458-1.232 5.618-3.262l189.561-328.233c0.54-0.926 0.859-2.038 0.859-3.226 0-3.58-2.899-6.482-6.476-6.488h-126.35zM322.429 460.929l120.768 209.133c1.129 1.972 3.221 3.28 5.618 3.28s4.489-1.308 5.601-3.248l0.017-0.031 120.731-209.133 55.745 96.52-182.131 315.33-182.094-315.33 55.745-96.52zM575.164 441.537c-2.32 0-4.422 1.232-5.581 3.262l-120.768 209.133-120.805-209.133c-1.134-1.954-3.216-3.248-5.6-3.248s-4.467 1.293-5.583 3.216l-0.017 0.030-63.175 109.387c-0.547 0.931-0.869 2.050-0.869 3.244s0.323 2.314 0.886 3.275l-0.017-0.030 189.561 328.27c1.134 1.954 3.216 3.248 5.6 3.248s4.467-1.293 5.583-3.216l0.017-0.030 189.561-328.27c1.16-1.993 1.16-4.495 0-6.488l-63.211-109.423c-1.16-1.993-3.262-3.226-5.581-3.226zM333.593 454.441l111.49 0.037 59.442 102.972-55.708 96.483-115.222-199.455zM322.429 441.537c-0.009 0-0.020 0-0.030 0-3.563 0-6.451 2.888-6.451 6.451 0 1.188 0.321 2.3 0.881 3.257l-0.017-0.030 126.386 218.847c1.129 1.972 3.221 3.28 5.618 3.28s4.489-1.308 5.601-3.248l0.017-0.031 63.139-109.387c1.16-1.993 1.16-4.458 0-6.451l-63.175-109.46c-1.16-1.957-3.262-3.189-5.581-3.189h-126.386zM374.404 345.017l-55.708 96.52h-111.453l55.708-96.483h111.453zM259.218 332.114c-2.32 0-4.422 1.232-5.581 3.262l-63.211 109.387c-0.543 0.926-0.865 2.038-0.865 3.226 0 3.563 2.888 6.451 6.451 6.451 0.010 0 0.022 0 0.032 0h126.348c2.32 0 4.458-1.196 5.618-3.226l63.175-109.423c0.543-0.926 0.865-2.038 0.865-3.226 0-3.561-2.886-6.449-6.446-6.451h-126.386zM69.622 23.2l182.131 315.403-55.708 96.483-182.131-315.33 55.708-96.557zM69.622 3.844c-2.283 0-4.422 1.232-5.546 3.262l-63.211 109.351c-0.543 0.926-0.865 2.038-0.865 3.226s0.321 2.3 0.881 3.257l-0.017-0.030 189.561 328.27c1.129 1.972 3.221 3.28 5.618 3.28s4.489-1.308 5.601-3.248l0.017-0.031 63.139-109.387c1.16-1.993 1.16-4.495 0-6.488l-189.561-328.27c-1.16-1.993-3.262-3.226-5.618-3.226zM80.821 16.784h364.26l55.708 96.483h-241.572c-0.004 0-0.010 0-0.016 0-3.563 0-6.451 2.888-6.451 6.451 0 1.202 0.329 2.328 0.902 3.291l-0.017-0.030 120.768 209.133h-111.453l-182.131-315.33zM69.622 3.844c-3.554 0.011-6.431 2.896-6.431 6.451 0 1.202 0.329 2.328 0.902 3.292l-0.017-0.030 189.561 328.27c1.16 1.993 3.262 3.226 5.581 3.226h126.386c0.004 0 0.010 0 0.016 0 3.563 0 6.451-2.888 6.451-6.451 0-1.202-0.329-2.328-0.902-3.291l0.017 0.030-120.768-209.133h241.572c0.004 0 0.010 0 0.016 0 3.563 0 6.451-2.888 6.451-6.451 0-1.202-0.329-2.328-0.902-3.291l0.017 0.030-63.175-109.387c-1.16-1.993-3.298-3.262-5.618-3.262h-379.121zM270.381 126.208h230.409l-55.745 96.483h-118.919l-55.708-96.483zM511.99 113.268h-252.772c-0.004 0-0.010 0-0.016 0-3.563 0-6.451 2.888-6.451 6.451 0 1.202 0.329 2.328 0.902 3.291l-0.017-0.030 63.175 109.387c1.123 2.030 3.262 3.262 5.581 3.262h126.386c2.32 0 4.422-1.269 5.581-3.262l63.211-109.387c0.556-0.934 0.886-2.059 0.886-3.262 0-3.563-2.888-6.451-6.451-6.451-0.005 0-0.011 0-0.017 0h0.001zM575.201 23.235l55.708 96.52-55.745 96.483-55.708-96.483 55.708-96.52zM575.201 3.881c-2.32 0-4.458 1.232-5.618 3.226l-63.175 109.387c-0.547 0.931-0.869 2.050-0.869 3.244s0.323 2.314 0.886 3.275l-0.017-0.030 63.175 109.423c1.134 1.954 3.216 3.248 5.6 3.248s4.467-1.293 5.583-3.216l0.017-0.030 63.175-109.46c1.16-1.957 1.16-4.458 0-6.451l-63.175-109.387c-1.16-1.993-3.298-3.262-5.618-3.262zM586.364 16.784h364.225l55.745 96.483h-364.26l-55.708-96.483zM954.322 3.844h-379.121c-3.579 0.006-6.476 2.908-6.476 6.488 0 1.187 0.319 2.3 0.875 3.257l-0.017-0.031 63.211 109.387c1.123 1.993 3.262 3.262 5.581 3.262h379.121c0.016 0 0.034 0 0.052 0 3.563 0 6.451-2.888 6.451-6.451 0-1.202-0.329-2.328-0.902-3.292l0.017 0.030-63.211-109.423c-1.123-1.993-3.262-3.226-5.581-3.226zM642.109 126.171h364.225l-182.131 315.33-111.453 0.037 120.768-209.133c0.556-0.934 0.886-2.059 0.886-3.262 0-3.563-2.888-6.451-6.451-6.451-0.005 0-0.011 0-0.017 0h-241.571l55.745-96.52zM1017.497 113.268h-379.121c-2.32 0-4.458 1.232-5.581 3.262l-63.211 109.423c-0.543 0.926-0.865 2.038-0.865 3.226 0 3.561 2.886 6.449 6.446 6.451h241.572l-120.768 209.133c-0.543 0.926-0.865 2.038-0.865 3.226 0 3.561 2.886 6.449 6.446 6.451h126.386c2.283 0 4.422-1.232 5.581-3.226l189.561-328.27c0.528-0.918 0.839-2.017 0.839-3.189 0-3.56-2.866-6.449-6.416-6.488h-0.003zM705.319 235.594h111.416l-115.186 199.492-55.708-96.52 59.442-102.935zM701.587 222.691c-2.32 0-4.458 1.232-5.618 3.226l-63.175 109.423c-0.543 0.926-0.865 2.038-0.865 3.226s0.321 2.3 0.881 3.257l-0.017-0.030 63.175 109.46c1.134 1.954 3.216 3.248 5.6 3.248s4.467-1.293 5.583-3.216l0.017-0.030 126.349-218.847c0.556-0.934 0.886-2.059 0.886-3.262 0-3.563-2.888-6.451-6.451-6.451-0.005 0-0.011 0-0.017 0h-126.348z" />
<glyph unicode="&#xe912;" glyph-name="GettyImages-1456747446-4" d="M640.614 118.471h286.759l-225.135 389.894h-294.71l69.653-120.714h151.389c2.495 0 4.794-1.325 6.042-3.43l77.683-134.629c1.247-2.143 1.247-4.794 0-6.938l-71.719-124.183zM628.57 104.555c-0.005 0-0.011 0-0.017 0-3.832 0-6.938 3.106-6.938 6.938 0 1.293 0.354 2.504 0.97 3.54l-0.018-0.032 75.695 131.121-73.668 127.652h-151.428c-2.455 0-4.755 1.325-6.002 3.469l-77.683 134.629c-0.584 0.995-0.93 2.192-0.93 3.469 0 3.83 3.103 6.935 6.932 6.938h310.77c2.495 0 4.794-1.325 6.042-3.508l233.087-403.809c0.567-0.987 0.902-2.17 0.902-3.431 0-3.814-3.060-6.913-6.86-6.976h-310.852zM96.719 522.241h139.345l225.096 389.894h-139.385l-225.058-389.894zM84.675 508.365c-3.829 0.004-6.932 3.109-6.932 6.938 0 1.277 0.346 2.474 0.948 3.502l-0.018-0.033 233.087 403.809c1.247 2.143 3.508 3.469 6.002 3.469h155.404c0.017 0 0.037 0 0.056 0 3.832 0 6.938-3.106 6.938-6.938 0-1.293-0.354-2.504-0.97-3.54l0.018 0.032-233.087-403.77c-1.247-2.143-3.547-3.508-6.042-3.508h-155.404zM88.69-16.12h450.192l-69.731 120.675h-450.154l69.692-120.675zM84.675-30.034c-2.455 0-4.755 1.325-6.002 3.508l-77.721 134.512c-0.598 1.005-0.952 2.215-0.952 3.509 0 3.832 3.106 6.938 6.938 6.938 0.020 0 0.039 0 0.059 0h466.17c2.495 0 4.794-1.364 6.042-3.508l77.683-134.59c0.567-0.987 0.902-2.17 0.902-3.43 0-3.828-3.083-6.936-6.9-6.977h-466.177zM19.037 118.471h450.114l147.375 255.304h-139.345l-75.695-131.121c-1.247-2.143-3.508-3.508-6.002-3.508h-155.444c-2.495 0-4.755 1.364-6.002 3.508l-71.719 124.144-143.321-248.327zM6.992 104.555c-0.005 0-0.011 0-0.017 0-3.832 0-6.938 3.106-6.938 6.938 0 1.293 0.354 2.504 0.97 3.54l-0.018-0.032 155.326 269.18c1.219 2.101 3.458 3.493 6.022 3.493s4.804-1.391 6.004-3.459l0.018-0.033 75.695-131.121h147.375l75.695 131.121c1.247 2.143 3.508 3.508 6.002 3.508h155.404c0.005 0 0.011 0 0.017 0 3.832 0 6.938-3.106 6.938-6.938 0-1.293-0.354-2.504-0.97-3.54l0.018 0.032-155.365-269.219c-1.247-2.143-3.547-3.469-6.042-3.469h-466.095zM550.888-9.182l147.375 255.304-69.692 120.675-147.375-255.304 69.692-120.675zM550.888-30.034c-2.495 0-4.794 1.325-6.002 3.508l-77.721 134.551c-0.584 0.995-0.93 2.192-0.93 3.469s0.346 2.474 0.948 3.502l-0.018-0.033 155.404 269.219c1.219 2.101 3.458 3.493 6.022 3.493s4.804-1.391 6.004-3.459l0.018-0.033 77.683-134.59c1.247-2.143 1.247-4.794 0-6.977l-155.404-269.18c-1.208-2.143-3.508-3.469-6.002-3.469zM407.527 522.241h294.749l69.653 120.714h-294.749l-69.653-120.714zM706.292 508.365h-310.808c-0.005 0-0.011 0-0.017 0-3.832 0-6.938 3.106-6.938 6.938 0 1.293 0.354 2.504 0.97 3.54l-0.018-0.032 77.683 134.551c1.247 2.143 3.508 3.508 6.002 3.508h310.808c0.005 0 0.011 0 0.017 0 3.832 0 6.938-3.106 6.938-6.938 0-1.293-0.354-2.504-0.97-3.54l0.018 0.032-77.683-134.59c-1.247-2.143-3.508-3.508-6.002-3.508zM395.484 259.999l69.692 120.714-75.695 131.121c-0.584 0.995-0.93 2.192-0.93 3.469s0.346 2.474 0.948 3.502l-0.018-0.033 77.683 134.59c1.247 2.143 3.508 3.508 6.002 3.508h143.36l-143.321 248.249-225.096-389.777 147.375-255.304zM395.484 239.145c-2.495 0-4.755 1.325-6.002 3.508l-155.404 269.18c-0.584 0.995-0.93 2.192-0.93 3.469s0.346 2.474 0.948 3.502l-0.018-0.033 233.087 403.809c1.219 2.101 3.458 3.493 6.022 3.493s4.804-1.391 6.004-3.459l0.018-0.033 155.404-269.219c0.598-1.005 0.952-2.215 0.952-3.509 0-3.832-3.106-6.938-6.938-6.938-0.020 0-0.039 0-0.059 0h-151.386l-73.668-127.613 75.695-131.121c1.208-2.143 1.208-4.794 0-6.938l-77.721-134.629c-1.208-2.143-3.508-3.469-6.002-3.469zM244.094 253.060h139.345l-147.335 255.304h-139.423l147.335-255.304zM240.079 239.145c-2.455 0-4.755 1.325-6.002 3.508l-155.404 269.18c-0.581 0.996-0.923 2.193-0.923 3.469 0 3.835 3.095 6.948 6.924 6.977h155.446c2.495 0 4.794-1.364 6.042-3.508l155.365-269.219c0.584-0.995 0.93-2.192 0.93-3.469 0-3.83-3.103-6.935-6.932-6.938h-155.404zM939.378 125.408l69.692 120.714-225.096 389.894-69.653-120.753 225.096-389.855zM939.378 104.555c-2.455 0-4.755 1.325-6.002 3.508l-233.087 403.809c-0.581 0.99-0.924 2.18-0.924 3.45s0.344 2.46 0.942 3.482l-0.018-0.033 77.683 134.59c1.223 2.083 3.452 3.459 6.002 3.459s4.779-1.376 5.985-3.426l0.018-0.033 233.087-403.809c1.247-2.105 1.247-4.755 0-6.899l-77.644-134.629c-1.247-2.143-3.508-3.469-6.002-3.469z" />
<glyph unicode="&#xe913;" glyph-name="GettyImages-1456747446-5" d="M512-49.024l131.977 76.162-131.977 76.162-131.938-76.162 131.938-76.162zM508.53-63.055l-145.853 84.191c-2.082 1.223-3.459 3.452-3.459 6.002s1.376 4.779 3.426 5.984l0.033 0.018 145.853 84.191c0.995 0.585 2.191 0.93 3.469 0.93s2.474-0.345 3.502-0.947l-0.033 0.018 145.853-84.191c2.101-1.218 3.493-3.458 3.493-6.022s-1.39-4.803-3.46-6.004l-0.033-0.018-145.853-84.191c-2.143-1.208-4.755-1.208-6.937 0zM518.937 628.363l131.977 76.162v160.353l-131.977 76.123v-312.599zM508.53 610.317c-2.143 1.247-3.508 3.508-3.508 6.042v336.687c0 0.005 0 0.011 0 0.017 0 3.832 3.106 6.937 6.937 6.937 1.293 0 2.504-0.353 3.54-0.97l-0.032 0.018 145.853-84.191c2.143-1.208 3.508-3.508 3.469-6.002v-168.343c0-2.495-1.325-4.794-3.469-6.002l-145.853-84.191c-2.143-1.208-4.794-1.208-6.937 0zM505.062 628.363v312.638l-131.938-76.123v-160.314l131.938-76.162zM508.569 610.317l-145.931 84.23c-2.143 1.208-3.469 3.508-3.469 6.002v168.382c0 2.456 1.364 4.755 3.508 6.002l145.853 84.152c0.987 0.567 2.169 0.901 3.43 0.901 3.841 0 6.957-3.104 6.977-6.941v-336.689c0-0.010 0-0.021 0-0.033 0-3.832-3.106-6.937-6.937-6.937-1.277 0-2.474 0.345-3.502 0.947l0.033-0.018zM803.706 119.319l131.977 76.162-270.893 156.299v-152.284l138.916-80.176zM800.237 105.287l-145.853 84.191c-2.143 1.208-3.469 3.508-3.469 6.002v168.343c0.041 3.822 3.149 6.904 6.977 6.904 1.261 0 2.444-0.334 3.465-0.92l-0.034 0.018 291.706-168.382c2.062-1.237 3.421-3.462 3.421-6.002s-1.358-4.765-3.389-5.984l-0.032-0.018-145.853-84.191c-2.143-1.208-4.794-1.208-6.937 0zM366.146 371.814l131.977 76.201-277.791 160.314-131.938-76.162 277.752-160.353zM362.716 357.783l-291.706 168.382c-2.082 1.223-3.459 3.452-3.459 6.002s1.376 4.779 3.426 5.984l0.033 0.018 145.814 84.191c1.002 0.584 2.204 0.929 3.489 0.929s2.487-0.344 3.522-0.947l-0.033 0.018 291.667-168.343c2.101-1.218 3.493-3.458 3.493-6.022s-1.39-4.803-3.46-6.004l-0.033-0.018-145.814-84.191c-2.143-1.208-4.794-1.208-6.937 0zM505.062 460.020v152.284l-277.791 160.353v-152.284l277.791-160.353zM508.569 441.974l-291.784 168.382c-2.143 1.208-3.43 3.508-3.43 6.002v168.343c0.003 3.829 3.108 6.932 6.937 6.932 1.277 0 2.474-0.345 3.502-0.947l-0.033 0.018 291.706-168.343c2.143-1.247 3.43-3.508 3.43-6.002v-168.382c-0.003-3.829-3.108-6.932-6.937-6.932-1.277 0-2.474 0.345-3.502 0.947l0.033-0.018zM81.417 544.212l131.977 76.162v152.284l-132.016-76.162v-152.284zM71.010 526.164c-2.182 1.247-3.508 3.508-3.508 6.002v168.343c0 2.495 1.325 4.794 3.508 6.002l145.853 84.191c0.995 0.585 2.191 0.93 3.469 0.93 3.83 0 6.934-3.103 6.937-6.931v0-168.382c0-2.456-1.325-4.755-3.469-6.002l-145.853-84.152c-2.143-1.208-4.794-1.208-6.937 0zM220.332 119.319l138.877 80.137v152.323l-270.815-156.299 131.938-76.162zM216.824 105.287l-145.814 84.191c-2.082 1.223-3.459 3.452-3.459 6.002s1.376 4.779 3.426 5.984l0.033 0.018 291.667 168.382c1.004 0.599 2.215 0.952 3.508 0.952 3.832 0 6.937-3.106 6.937-6.937 0-0.020 0-0.039 0-0.059v0.003-168.382c0-2.456-1.325-4.755-3.508-6.002l-145.814-84.191c-2.143-1.208-4.794-1.208-6.977 0zM657.853 371.814l277.83 160.353-131.977 76.162-277.791-160.314 131.938-76.201zM654.383 357.783l-145.853 84.191c-2.101 1.218-3.493 3.458-3.493 6.022s1.39 4.803 3.46 6.004l0.033 0.018 291.706 168.343c0.996 0.581 2.192 0.924 3.469 0.924s2.473-0.342 3.503-0.941l-0.033 0.018 145.853-84.191c2.080-1.233 3.454-3.468 3.454-6.022s-1.373-4.789-3.422-6.004l-0.032-0.018-291.706-168.343c-2.143-1.208-4.794-1.208-6.937 0zM518.937 460.020l277.83 160.353v152.284l-277.83-160.353v-152.284zM508.53 441.974c-2.143 1.247-3.508 3.508-3.508 6.042v168.343c0 2.456 1.364 4.755 3.508 6.002l291.706 168.343c0.995 0.585 2.191 0.93 3.469 0.93 3.832 0 6.937-3.106 6.937-6.937 0-0.012 0-0.023 0-0.035v0.002-168.304c0-2.495-1.325-4.794-3.508-6.042l-291.667-168.343c-2.143-1.208-4.794-1.208-6.937 0zM81.417 207.486l270.893 156.299-131.977 76.162-138.916-80.137v-152.323zM71.010 189.44c-2.143 1.247-3.508 3.508-3.508 6.002v168.382c0 2.456 1.364 4.755 3.508 6.002l145.853 84.191c0.995 0.585 2.191 0.93 3.469 0.93s2.474-0.345 3.502-0.947l-0.033 0.018 145.853-84.191c2.101-1.218 3.493-3.458 3.493-6.022s-1.39-4.803-3.46-6.004l-0.033-0.018-291.706-168.343c-2.143-1.247-4.794-1.247-6.937 0zM373.123 39.143l131.938 76.162v320.666l-131.938-76.162v-320.666zM362.677 21.096c-2.143 1.247-3.469 3.508-3.469 6.042v336.687c0 2.456 1.325 4.755 3.508 6.002l145.814 84.191c0.995 0.585 2.191 0.93 3.469 0.93 3.83 0 6.934-3.103 6.937-6.931v0-336.765c0-2.456-1.286-4.716-3.43-5.963l-145.853-84.191c-2.143-1.247-4.794-1.247-6.977 0zM650.915 39.143v320.666l-131.977 76.162v-320.666l131.977-76.162zM654.422 21.096l-145.892 84.191c-2.143 1.247-3.508 3.508-3.508 6.002v336.726c0 0.005 0 0.011 0 0.017 0 3.832 3.106 6.937 6.937 6.937 1.293 0 2.504-0.353 3.54-0.97l-0.032 0.018 145.853-84.191c2.143-1.247 3.508-3.508 3.469-6.002v-336.687c0-0.010 0-0.021 0-0.033 0-3.832-3.106-6.937-6.937-6.937-1.277 0-2.474 0.345-3.502 0.947l0.033-0.018zM942.621 207.486v152.323l-138.916 80.176-131.938-76.162 270.854-156.299zM946.091 189.44l-291.706 168.382c-2.082 1.223-3.459 3.452-3.459 6.002s1.376 4.779 3.426 5.984l0.033 0.018 145.853 84.191c0.995 0.585 2.191 0.93 3.469 0.93s2.474-0.345 3.502-0.947l-0.033 0.018 145.853-84.191c2.143-1.247 3.469-3.508 3.469-6.002v-168.382c-0.041-3.822-3.149-6.904-6.977-6.904-1.261 0-2.444 0.334-3.465 0.92l0.034-0.018zM942.621 544.212v152.284l-131.977 76.162v-152.284l131.977-76.162zM946.091 526.125l-145.853 84.191c-2.143 1.247-3.508 3.508-3.508 6.042v168.304c0 0.017 0 0.036 0 0.056 0 3.832 3.106 6.937 6.937 6.937 1.293 0 2.504-0.353 3.54-0.97l-0.032 0.018 145.853-84.191c2.143-1.208 3.469-3.508 3.469-6.002v-168.382c-0.041-3.822-3.149-6.904-6.977-6.904-1.261 0-2.444 0.334-3.465 0.92l0.034-0.018z" />
<glyph unicode="&#xe914;" glyph-name="GettyImages-1456747446-6" d="M584.151 377.792c-2.433 0-4.638 1.293-5.854 3.421l-72.185 125.059c-0.369 0.811-0.584 1.759-0.584 2.757 0 3.758 3.046 6.804 6.804 6.804 2.267 0 4.275-1.108 5.511-2.813l0.014-0.020 66.293-114.871 136.5 236.547-136.462 236.584-66.33-114.871c-1.193-2.043-3.375-3.395-5.873-3.395-3.743 0-6.778 3.034-6.778 6.778 0 1.246 0.336 2.412 0.922 3.415l-0.017-0.032 72.185 125.059c1.207 2.011 3.375 3.336 5.854 3.336s4.647-1.325 5.836-3.305l0.017-0.030 144.368-250.116c1.216-2.129 1.216-4.676 0-6.804l-144.368-250.116c-1.179-2.091-3.421-3.383-5.854-3.383zM151.123 377.792c-3.737 0.028-6.754 3.064-6.754 6.804 0 1.245 0.334 2.412 0.918 3.415l-0.017-0.032 144.33 250.116c1.216 2.091 3.421 3.383 5.892 3.383h288.661c0.005 0 0.010 0 0.017 0 3.737 0 6.766-3.029 6.766-6.766 0-1.261-0.345-2.442-0.946-3.452l0.017 0.031-72.83-126.198c-1.193-2.043-3.375-3.395-5.873-3.395-3.743 0-6.778 3.034-6.778 6.778 0 1.246 0.336 2.412 0.922 3.415l-0.017-0.032 67.014 116.049h-273.076l-136.462-236.547h134.561c3.737 0 6.766-3.029 6.766-6.766s-3.029-6.766-6.766-6.766v0h-146.345zM299.367 641.479h273.038l-136.462 236.547h-273.114l136.538-236.547zM295.491 627.909c-2.433 0-4.676 1.293-5.892 3.421l-144.33 250.079c-0.584 0.98-0.929 2.16-0.929 3.421 0 3.737 3.029 6.766 6.766 6.766 0.006 0 0.011 0 0.017 0h288.697c2.395 0 4.638-1.293 5.854-3.421l144.368-250.116c0.57-0.97 0.907-2.138 0.907-3.383 0-3.737-3.029-6.766-6.766-6.766-0.011 0-0.023 0-0.034 0h-288.659zM151.123 398.129l136.538 236.509-136.538 236.661-136.538-236.661 136.538-236.547zM151.123 377.792c-2.395 0-4.638 1.293-5.854 3.421l-144.368 250.079c-0.566 0.971-0.901 2.139-0.901 3.383s0.334 2.411 0.918 3.415l-0.017-0.032 144.368 250.155c1.203 2.029 3.382 3.369 5.873 3.369s4.67-1.339 5.855-3.336l0.017-0.031 144.33-250.116c1.216-2.129 1.216-4.676 0-6.804l-144.33-250.116c-1.216-2.091-3.459-3.383-5.892-3.383zM515.008 254.521c-2.433 0-4.676 1.331-5.892 3.421l-144.33 250.116c-0.584 0.98-0.929 2.16-0.929 3.421 0 3.737 3.029 6.766 6.766 6.766 0.006 0 0.011 0 0.017 0h140.262c3.763 0 6.804-3.041 6.842-6.766v-0.038c-0.038-3.726-3.041-6.766-6.842-6.766h-128.556l136.576-236.584h273.038l-65.266 113.085c-0.569 0.971-0.905 2.138-0.905 3.383 0 3.743 3.034 6.778 6.778 6.778 2.498 0 4.68-1.351 5.855-3.362l0.017-0.032 71.081-123.234c0.57-0.97 0.907-2.138 0.907-3.383 0-3.735-3.026-6.763-6.76-6.766h-288.661zM382.347 17.974h273.076l136.538 236.584h-273.038l-136.576-236.584zM370.639 4.404c-0.005 0-0.010 0-0.017 0-3.737 0-6.766 3.029-6.766 6.766 0 1.261 0.345 2.442 0.946 3.452l-0.017-0.031 144.33 250.116c1.216 2.091 3.421 3.421 5.892 3.421h288.661c0.005 0 0.010 0 0.017 0 3.737 0 6.766-3.029 6.766-6.766 0-1.261-0.345-2.442-0.946-3.452l0.017 0.031-144.33-250.116c-1.179-2.091-3.421-3.421-5.854-3.421h-288.698zM370.639 24.74l136.538 236.584-136.538 236.584-136.5-236.584 136.5-236.584zM370.639 4.404c-2.433 0-4.638 1.331-5.854 3.421l-144.368 250.116c-0.57 0.97-0.907 2.138-0.907 3.383s0.336 2.412 0.923 3.415l-0.017-0.032 144.368 250.116c1.188 2.050 3.372 3.406 5.873 3.406s4.684-1.357 5.855-3.374l0.017-0.032 144.33-250.116c1.216-2.091 1.216-4.676 0-6.766l-144.33-250.116c-1.216-2.091-3.459-3.421-5.892-3.421zM732.396 641.479h273.076l-136.538 236.547h-273.038l136.5-236.547zM728.519 627.909c-2.433 0-4.676 1.293-5.892 3.421l-144.33 250.116c-0.57 0.97-0.907 2.138-0.907 3.383 0 3.735 3.026 6.763 6.76 6.766h288.699c2.433 0 4.638-1.293 5.854-3.421l144.368-250.116c0.57-0.97 0.907-2.138 0.907-3.383 0-3.737-3.029-6.766-6.766-6.766-0.011 0-0.023 0-0.034 0h-288.659zM595.859 391.362h273.076l136.538 236.547h-273.076l-136.538-236.547zM584.151 377.792c-3.737 0.028-6.754 3.064-6.754 6.804 0 1.245 0.334 2.412 0.918 3.415l-0.017-0.032 144.33 250.116c1.216 2.091 3.421 3.383 5.892 3.383h288.661c0.017 0 0.036 0 0.055 0 3.737 0 6.766-3.029 6.766-6.766 0-1.261-0.345-2.442-0.946-3.453l0.017 0.031-144.368-250.116c-1.216-2.091-3.421-3.383-5.854-3.383h-288.698z" />
<glyph unicode="&#xe915;" glyph-name="GettyImages-1207574548" d="M1024 510.359l-3.56 2.11-191.168 110.482-7.251 3.956v233.489l-108.109 62.229-201.847-116.546-201.979 116.546-108.109-62.36v-233.357l-7.119-3.956-194.859-112.592v-124.721l201.979-116.679v-233.225l108.109-62.36 3.56 2.11 198.419 114.437 201.847-116.415 7.119 3.956 100.989 58.273v233.357l201.979 116.546v124.721zM713.912 572.851l-201.847 116.546-7.119-3.956-194.859-112.592-86.751 50.099 201.979 116.546-10.679 6.196-191.3 110.35 86.751 50.099 201.979-116.546 201.847 116.546 86.751-50.099-201.979-116.546 201.979-116.546-86.751-50.099zM216.215 635.212v208.571l180.621-104.286-180.621-104.154zM807.783 635.212l-180.489 104.286 180.621 104.154v-208.307zM317.206 343.845v216.482l187.74 108.373v-216.745l-187.74-108.109zM706.792 343.845l-187.608 108.109v216.877l187.608-108.373v-216.613zM807.783 377.333l201.979 116.546v-100.067l-201.979-116.546v-233.357l-86.751-49.967v233.225l-201.847-116.546v100.067l201.847 116.679v232.962l86.751 50.099v-233.225zM302.834-6.058l-86.619 50.099v233.225l-201.979 116.546v100.199l201.979-116.679v233.225l86.751-50.099v-233.225l7.119-3.956 194.859-112.592v-100.199l-201.979 116.679v-233.225zM822.021 401.986v208.571l180.621-104.154-180.621-104.417zM201.977 401.986l-180.621 104.286 180.621 104.154v-208.307zM512.065 223.080l-7.251 3.956-180.621 104.417 73.303 42.189 114.569 66.184 65.261-37.838 122.347-70.535-7.119-4.219-180.621-104.154zM317.206-6.058v208.571l180.621-104.286-180.621-104.154zM706.792-6.058l-180.621 104.154 180.621 104.417v-208.571z" />
<glyph unicode="&#xe916;" glyph-name="GettyImages-1444653136" d="M803.504 791.631h-0.522c-1.082-0.14-2.056-0.511-2.902-1.062l0.027 0.016-135.296-78.040v156.342c0 2.614-1.307 4.837-3.53 6.014l-145.754 84.184c-0.334 0.192-0.722 0.368-1.127 0.508l-0.048 0.014 1.177-0.522c-0.988 0.576-2.175 0.916-3.442 0.916-0.030 0-0.062 0-0.092-0.001h-0.256l-1.961-0.392h-0.261c-0.353-0.165-0.652-0.34-0.936-0.537l0.020 0.013-437.522-252.683c-2.115-1.207-3.521-3.445-3.53-6.012v-168.369c0-2.614 1.307-4.837 3.53-6.014l135.427-78.171-135.557-78.040c-2.049-1.228-3.399-3.438-3.399-5.962 0-0.018 0-0.036 0-0.054v0.003-168.891c0.211-2.29 1.509-4.238 3.366-5.342l0.032-0.017 437.653-252.552c2.092-1.307 4.706-1.307 6.797 0l145.884 84.184c2.223 1.307 3.53 3.66 3.53 6.014v156.342l135.427-78.171c2.092-1.307 4.837-1.307 6.928 0l146.276 84.446c0.2 0.136 0.37 0.265 0.534 0.401l-0.011-0.009-0.915-0.654c2.027 1.215 3.369 3.389 3.399 5.878v505.108c0 2.614-1.307 4.837-3.399 6.014l-145.754 84.053c-1.040 0.657-2.304 1.046-3.66 1.046v0h-0.131zM650.953 712.546l-132.027 76.21v152.42l132.027-76.21v-152.42zM227.288 291.626v324.579c0 3.922-3.137 6.928-6.928 6.928h-1.438l-0.915-0.392c-0.457-0.158-0.845-0.335-1.214-0.543l0.037 0.019-135.427-77.91v152.29l423.665 244.447v-152.29l-142.485-82.223c-1.976-1.243-3.27-3.412-3.27-5.884 0-0.045 0-0.092 0.001-0.137v0.007-332.684l-132.027-76.21zM373.041 544.178v152.42l132.027 76.21v-152.42l-132.027-76.21zM808.079 611.107l0.915 0.785c0.976 1.185 1.569 2.719 1.569 4.391 0 0.019 0 0.038 0 0.056v-0.003 156.472l132.027-76.21v-489.156l-132.027 76.21v164.316c0 2.614-1.307 4.837-3.399 6.014l-26.798 15.425-261.442 150.982v152.42l135.427-78.302 145.884-84.053c2.614-1.568 5.751-1.307 7.843 0.654zM796.706 628.361l-124.969 72.157 124.969 72.288v-144.446zM511.997 455.941l-132.027 76.21 20.654 12.026 111.373 64.184 132.027-76.21-132.027-76.21zM213.431 459.863l-125.1 72.288 125.1 72.288v-144.446zM518.925 291.626v152.42l132.027 76.21v-152.42l-132.027-76.21zM505.069 291.626l-132.027 76.21v152.42l132.027-76.21v-152.42zM796.836 291.626l-132.027 76.21v152.42l26.536-15.425 105.361-60.785v-152.42zM81.404 207.441v152.42l132.027 76.21v-152.42l-132.027-76.21zM366.113 203.52l-132.027 76.079 132.027 76.21 132.027-76.079-31.634-18.301-100.393-57.909zM511.997-49.163l-423.665 244.447 132.027 76.21 142.354-82.093c2.092-1.307 4.706-1.307 6.928 0l288.239 166.277 132.027-76.21-281.311-162.355c-2.035-1.231-3.375-3.433-3.375-5.948s1.339-4.717 3.344-5.93l0.031-0.017 1.568-0.915 133.858-77.386-132.027-75.948zM803.635 119.206l-132.027 76.079 132.027 76.21 132.027-76.21-132.027-76.079zM650.953 38.943l-125.1 72.157 125.1 72.288v-144.446z" />
<glyph unicode="&#xe917;" glyph-name="GettyImages-1456747446-1" d="M515.594-44.31l169.797 98.355c1.22 1.265 1.973 2.99 1.973 4.889 0 0.014 0 0.030 0 0.044v-0.002 384.686l333.113 192.484c2.121 1.241 3.524 3.507 3.524 6.102 0 0.035 0 0.069-0.001 0.103v-0.005 194.457c-0.016 2.578-1.414 4.825-3.49 6.042l-0.034 0.018-170.221 98.215c-0.469 0.112-1.008 0.175-1.561 0.175-1.35 0-2.611-0.38-3.683-1.038l0.031 0.017-332.972-192.484-333.113 192.343c-1.008 0.608-2.221 0.973-3.519 0.986h-0.286c-1.205-0.066-2.314-0.424-3.272-1.004l0.032 0.017-168.388-97.228c-2.109-1.234-3.506-3.481-3.523-6.057v-194.458c0-2.677 1.409-4.932 3.663-6.2l332.972-192.343v-384.686c0-0.029-0.001-0.064-0.001-0.098 0-2.594 1.403-4.862 3.49-6.084l0.034-0.018 168.247-97.228c1.010-0.593 2.226-0.944 3.523-0.944s2.512 0.351 3.556 0.962l-0.034-0.018zM14.093 654.607v178.111l154.015 88.914v-177.83l-153.875-89.197zM1009.627 654.607l-153.875 89.197v177.83l154.015-88.914v-178.111zM511.931 553.293l-329.59 190.23v178.252l483.747-279.426-154.015-89.056zM680.178 650.521l-154.015 89.056 315.358 182.057v-177.83l-161.202-93.002zM336.356 460.291l-314.936 182.057 154.015 89.056 161.202-93.142v-178.111zM518.976 363.063v177.83l329.449 190.37 154.157-89.056-483.606-279.285zM350.869 71.378v558.711l154.015-89.056v-380.741l-154.015-88.914zM673.133 71.378l-154.015 88.914v186.284l154.015 89.056v-364.255zM512.071-30.078l-154.157 89.056 154.157 89.056 154.015-89.056-154.015-88.914z" />
<glyph unicode="&#xe918;" glyph-name="GettyImages-1456747446-2" d="M760.455 9.162l124.766 72.084c2.156 1.213 3.503 3.503 3.503 5.928v284.699l121.533 70.063c2.030 1.186 3.372 3.354 3.372 5.836 0 0.080-0.001 0.159-0.004 0.238v-0.011 144.168c0.002 0.068 0.004 0.147 0.004 0.227 0 2.482-1.342 4.65-3.34 5.819l-0.032 0.017-246.568 142.417v140.261c0 0.028 0.001 0.061 0.001 0.094 0 2.481-1.341 4.648-3.337 5.817l-0.032 0.017-125.036 72.219c-0.982 0.592-2.168 0.942-3.436 0.942s-2.454-0.35-3.466-0.959l0.030 0.017-246.568-142.282-121.533 70.063c-0.986 0.579-2.171 0.921-3.436 0.921s-2.45-0.342-3.468-0.938l0.032 0.018-125.036-72.084c-2.034-1.218-3.374-3.41-3.374-5.915 0-0.099 0.002-0.198 0.006-0.297v0.014-284.295l-122.611-71.141-0.808-0.808c-0.981-1.158-1.588-2.661-1.617-4.305v-144.309c0-2.425 1.347-4.716 3.503-5.928l246.568-142.417v-140.261c0-2.56 1.347-4.851 3.368-6.063l124.901-72.084 2.021-0.808h0.269c0.315-0.069 0.685-0.117 1.063-0.134l0.015-0.001h1.347l0.808 0.269c0.516 0.193 0.96 0.42 1.374 0.69l-0.026-0.016 246.568 142.282 121.802-70.333c0.216-0.092 0.485-0.184 0.761-0.259l0.047-0.011-1.078 0.404c0.991-0.587 2.185-0.935 3.46-0.935 1.366 0 2.639 0.399 3.709 1.086l-0.027-0.016zM381.844 672.472l-111.158 64.269 361.095 208.438 111.293-64.269-361.095-208.438zM256.808 744.421l-84.211 48.775-26.947 15.495 111.158 64.269 111.293-64.269-111.293-64.269zM388.716 387.638v272.842l361.229 208.573v-264.758l-34.088 19.537-80.573 46.619c-0.66 0.386-1.431 0.668-2.252 0.803l-0.039 0.005h-2.291c-0.86-0.14-1.63-0.423-2.323-0.826l0.032 0.017-125.036-72.219-0.943-0.674-0.808-0.808c-1.006-1.187-1.617-2.736-1.617-4.428 0-0.006 0-0.013 0-0.019v0.001-140.261l-39.208-22.636-72.084-41.768zM138.779 532.076v264.893l111.158-64.269v-136.488l-42.981-24.926-68.177-39.343zM881.853 528.034l-118.164 68.177v128.539l229.322-132.581-111.158-64.135zM374.973 387.907l-111.293 64.135v272.842l111.293-64.269v-272.707zM756.817 456.084l-236.194 136.219 111.158 64.269 236.194-136.488-111.158-64.269zM749.945 27.082l-229.322 132.446 10.24 5.928 104.421 60.227c2.028 1.186 3.369 3.354 3.369 5.835 0 0.033 0 0.066-0.001 0.099v-0.005 144.303c0 0.028 0.001 0.061 0.001 0.094 0 2.481-1.341 4.648-3.337 5.817l-0.032 0.017-121.533 70.063v128.539l236.194-136.488v-417.011zM381.844 239.427l-361.095 208.573 229.187 132.446v-132.446c0-2.425 1.347-4.716 3.503-5.928l124.901-72.084c0.582-0.357 1.257-0.636 1.976-0.8l0.045-0.009 0.808-0.135h2.291c0.716 0.187 1.344 0.464 1.914 0.825l-0.028-0.016 121.533 70.198 111.158-64.269-236.194-136.354zM888.724 387.638v128.539l111.158 64.269v-128.539l-111.158-64.135zM763.688 26.947v417.011l111.158 64.269v-417.011l-111.158-64.269zM374.973 99.166l-361.229 208.438v128.539l361.229-208.573v-128.404zM388.716 99.166v128.404l236.194 136.354v-128.404l-236.194-136.354zM388.716-45.272v128.404l118.164 68.446 111.158-64.269-229.322-132.446zM374.973-45.272l-111.293 64.269v128.539l111.293-64.135v-128.539z" />
<glyph unicode="&#xe919;" glyph-name="minus" d="M1024 462.628v-29.257h-1024v29.257z" />
<glyph unicode="&#xe91a;" glyph-name="plus" d="M526.629 960.001v-497.371h497.371v-29.257h-497.371v-497.371h-29.257v497.371h-497.371v29.257h497.371v497.371h29.257z" />
<glyph unicode="&#xe91b;" glyph-name="Search" d="M615.453 904.85c123.497-72.3 205.129-204.318 205.129-355.401 0-100.547-36.155-192.651-96.174-264.019l0.513 0.626 299.052-299.052-51.005-51.005-299.293 299.052c-70.712-59.41-162.743-95.503-263.204-95.503-226.509 0-410.164 183.482-410.444 409.926v9.17c5.089 222.738 186.858 401.356 410.343 401.356 75.504 0 146.247-20.387 207.023-55.957l-1.94 1.049zM241.338 842.297c-107.398-58.118-179.118-169.929-179.118-298.49 0-186.821 151.448-338.268 338.268-338.268 66.268 0 128.086 19.056 180.273 51.987l-1.396-0.822c98.138 60.38 162.588 167.198 162.588 289.070 0 186.821-151.448 338.268-338.268 338.268-59.536 0-115.479-15.381-164.074-42.385l1.727 0.881z" />
</font>
</defs>
</svg>
